now you see me streaming eng sub ita

 

 

 

 

You are watching the movie Now You See Me 2 2016 produced in USA belongs in Category Comedy, Action, Thriller , with duration 129 Min , broadcast at Cmovieshd.Net,Director by Jon M. Chu Free Streaming Download Video and Download MP3 Song Film Now You See Me Streaming Ita Mp4 Webm 3gp Mp3 Flac 320Kbps 1080p 720p HD HQ 4K. HD Streaming.If youre trying to watch Now You See Me (2013) and it isnt loading, please check our FAQ page before reporting it as a dead link. Now You See Me 2 movie subtitles. Subtitles for movies.Now.You.See.Me.2.2016.1080p.BluRay.

REMUX.AVC.DD5.1-FGT.ENG.srt. Subscene Free Download subtitles of Now You See Me 2 (2016) Hollywood English movie on the biggest movie subtitles database in the world, Subscene.co.in. Now You See Me 2 : After fleeing from a stage show, the illusionists (Jesse Eisenberg, Woody Harrelson) known as the Four Horsemen find themselves in more trouble in Macau, China when they are forcibly recruited by a tech genius to pull off their mostYou can use it to streaming on your TV. Watch Now You See Me Online Free 2013 Putlocker Full Movie Streaming The story is original and fresh with some mesmerizing action sequences and a few even much better thrills! All of my respect goes to Boaz Yakin and Edward Ricourt Four magicians each answer a mysterious summons to an obscure address with secrets inside. A year later, they are the Four Horsemen, big time stage What follows is a bizarre investigation where nothing is what it seems with illusions, dark secrets and hidden agendas galore as all involved are reminded of a great truth in this puzzle: the closer you look, the less you see. Watch Now You See Me (2013) - Version 1. An FBI agent and an Interpol detective track a team of illusionists who pull off bank heists during their performances and reward their audiences with the money. sub. download.

1. English. subtitle Now You See Me 2013 720p 10bit BluRay x265 HEVC MZABI.0. English. subtitle Now You See Me 2013 BRrip XviD ENG ITA subs Ac3 I Maghi Del Crimine. Director: Jon M. Chu. Cast: The Four Horsemen resurface, and are forcibly recruited by a tech genius to pull off their most impossible heist yet. Tags: Now You See Me 2 (2016). Watch Now You See Me 2 Eng SubWatch Now You See Me 2 Full Movie Online Free Stream Eng Sub You. Home»Search Results for "now you see me online eng sub" Query.Streaming Now You See Me 2 Subtitle Indonesia. On Rabu, September 14th, 2016 By admin. Watch Free online Now You See Me 2 English movie, Download Torrent in HD result - HD Video.Now You See Me (2013) | ФИЛМОВИ ОНЛАН. hd-usenet-streams.com. Now You See Me 2. One year after outwitting the FBI and winning the publics adulation with their mind-bending spectacles, the Four Horsemen resurface only to find themselves face to face with a new enemy who enlists them to pull off their most dangerous heist yet.sub. Crime, mystery, thriller. Director: Louis Leterrier. Starring: Jesse Eisenberg, Mark Ruffalo, Woody Harrelson. Seorang agen FBI dan detektif Interpol melacak tim ilusionis yang melakukan perampokan bank selama pertunjukan mereka dan menghargai penonton mereka dengan uang. , Free movie Now You See Me with English Subtitles.Xmovies8.tv is the best movie site, where you can watch movies online completely free. No download, no surveys and only instant streaming of movies. www.psagmeno.com | No1 Subs iNFO. English.Now.You.See.Me.(I.Ma.Del.Crimine).2013.BRRip.XviD.Sub.Ita.Non.Udenti.BLUWORLD. 2 years ago. 1. Movies: Now You See Me 2 Director: Jon M. Chu Cast: Jesse Eisenberg, Mark Ruffalo, Woody Harrelson, Dave Franco Production Co: Genres: Action, Comedy, Thriller Runtime: 129 min Country: USA Release Date: 2016.Complete name : Now You See Me 2 (2016).ita.eng.sub.ita.iCV-MIRCrew.mkv Format : Matroska Format version : Version 2 File size : 1.97 GiB Duration : 2hColor space : YUV Chroma subsampling : 4:2:0 Bit depth : 8 bits Scan type : Progressive Bits/(PixelFrame) : 0.246 Stream size : 1.12 GiB (57 4 years2868 MB21. Terra.Nova.S01E10.Now.You.See.Me.HDTV.XviD-Eng.SubIta-[IDNCREW] » video tv.IT 2s, 2017 movies ita 1s, ANGELA WHITE 2s, my friends hot mommy 0s, 2s, tv .proper.|.repack. HD Streaming.If youre trying to watch Now You See Me (2013) and it isnt loading, please check our CONTACT page to report it as a dead link. Crime, thriller. Director: Louis Leterrier. An FBI agent and an Interpol detective track a team of illusionists who pull off bank heists during their performances and reward their audiences with the money. Running time: 1:55:00. English Now You See Me(2013) RERip EXTENDED BRRip XviD - ViCKY.Italian Now.You.See.Me.(I.Ma.Del.Crimine).2013.BRRip.XviD.Sub.Ita .Non.Udenti.BLUWORLD.Michael Caine, Jesse Eisenberg, Mlanie Laurent, Elias Koteas, Michael Kelly, Common, Laura Cayouette, Joe Chrest Director: Louis Leterrier Audio: English, Italian Subtitles: English, Italian.www.imdb.com/title/tt1670345. en.wikipedia.org/wiki/NowYouSeeMe(film). TECHNICAL DATA SUBSCRIBE Now You See Me 2 (2017) ?[Full Movie]? ?This track will be great to add this feel good mood check 10 legal resources of free music downloads video portals, streaming has a section called the antenna sampler, where you can find selection google play offers rotating songs download. Thank you for your report!. Now You See Me 2. Watch Trailer.Watch free online movies 123movies subbed movie with subtitles Free online movies 2018 PUTLOCKER. You need to enable browsers cookie to stream. Watch Putlocker Now You See Me 2. Do you know what a VPN is? It helps mask your activity online, so your ISP (or anyone else) cant see what youre doing. It also blocks annoying ads and pops. You can try it for free too. Now You See Me 2 Official Trailer 1 (2016) Daniel Radcliffe, Jesse Eisenberg Magic Movie HD. by Zero Media. 1:30.by Movieclips Trailers. 1:00. Language: English. Location: Russia. Restricted Mode: Off. Song, Movie or Video Film Now You See Me Streaming Ita Download Mp4 Mp3 3gp Flac Webm Mkv format and 1080p 720p HD 4K 320Kbps quality, stream it for free - Xnvideo. Stream. Max Go. Subs. Rent. FandangoNOW..

0. -. English Language: sub Uploader: now you see me 2. DOWNLOAD SUBTITLE Sponsored Links Sponsored Links Promoted Links Promoted Links. Language: English. Country: France,USA.Now.You.See.Me.2013.EXTENDED.720p.BluRay.x264-NeZu Size: 1.23 Gigabyte Seeds: 1 Peers: 85.Complete name : Now You See Me 2 (2016).ita.eng.sub.ita.iCV-MIRCrew.mkv Format : Matroska Format version : Version 2 File size : 1.97 GiBYUV Chroma subsampling : 4:2:0 Bit depth : 8 bits Scan type : Progressive Bits/(PixelFrame) : 0.246 Stream size : 1.12 GiB (57) Writing library : x264 Now You See Me is about a group of talented street magicians, who were assembled by a mysterious person to perform an impossible mission before thousands of people moved from New York to a bank in Paris to stole money. Watch Streaming dan download film movie Now You See Me 2 2016 subtitle bahasa indonesia online gratis di bioskopkeren.online. Nonton movie Nonton Film Online Bioskop Online Watch Streaming Download Sub Indo. Trailer Ita Tag : Interstellar trailer in italiano, Interstellar film completo in italiano, Interstellar streaming sub ita, Interstellar film senza limiti, Interstellar altadefinizione, Interstellar streaming cineblognow you see me 2 ita streaming. warcraft linizio filmsenzalimiti. the-nice-guys streaming. English.Now you can register and get a subscription that removes ads, enables HD quality and improve the speed of the videos! Country: USA, France. watch Now. Rough Night (2017). Things go terribly wrong for a group of girlfriends who hire a male stripper for a bachelorette party in Miami.watch Now. I Am Not Your Negro (2016). Rates : 8. I like I dont like. Now You See Me. Share : Free online movies 2017 HD. Search results for guarda Now You See Me 2 - I maghi del crimine sub ita.100 legale, autorizzato SIAE qu puoi vedere film in streaming streaming a casa tua. Guarda subito il primo trailer ufficiale e le locandine del Cacciatore e la In Now You See Me 2013 Putlocker Full Movie, An FBI agent and an Interpol detective track a team of illusionists who pull off bank heists during their performances and reward their audiences with the money. Stream in HD Download HD.NA. Loading Related Movies For Now You See Me 2 2016. Pitch Perfect 3 2017. Kickboxer Retaliation 2017. Now You See Me 2. One year after outwitting the FBI and winning the publics adulation with their Robin Hood-style magic spectacles, The Four Horsemen resurface for a comeback performance in hopes of exposing the unethical practices of a tech magnate. Director: Louis Leterrier. Starring: Jesse Eisenberg, Mark Ruffalo, Woody Harrelson and others. An FBI agent and an Interpol detective track a team of illusionists who pull off bank heists during their performances and reward their audiences with the money. One year after outwitting the FBI and winning the publics adulation with their Robin Hood-style magic spectacles, The Four Horsemen resurface for a comeback Information about the torrent Now You See Me 2 (2016).ita.eng.sub.ita.iCV-MIRCrew.mkv. Seeders, leechers and torrent status is updated several times per day. Action, comedy, thriller. Director: Jon M. Chu. Starring: Alexandra Fraser, Daniel Radcliffe, Dave Franco and others. The Four Horsemen resurface and are forcibly recruited by a tech genius to pull off their most impossible heist yet. Running time: 2:09:00. Add to watch list. Dismiss. Stream in HD.OpenLoad. HD. Now You See Me. IMDb 7.3 115 min. Now You See Me 2013 EXTENDED RERIP 720p BluRay x264 SPARKS PublicHD English Subtitle.0. English. Subtitle Now You See Me 2013 BRrip XviD ENG ITA subs Ac3 I Maghi Del Crimine.

related: